Скачать порно торрент без регистрации бесплатно.

Pornolabs.org отличный порно торрент. У нас вы сможете скачать порно через торрент на любой вкус. Самые горячие новинки порно за 2015 год. Имеются паки порно фильмов торрент, сайтрипы, хентай торрент, порно игры, японское порно, и даже гей порно. Скачать порно torrent намного проще, чем смотреть порно онлайн. Скачивая порно через торрент у нас Вы не пожалеете. Быстро, без регистрации, без вирусов. Самое горячее порно видео на Pornolabs.org. Порно с самимы популярными порно актриссами, такими например как Саша Грей, Лиза Энн и т.д. У нас даже можно скачать нетрадиционное порно, бдсм или например порно с транссексуалами. Оставайтесь с нами и сможете в любое время скачать новое порно бесплатно через торрент.

Скачать торрент [GaggingWhores.com] Monica GaggingWhores.com - Monika Maple [2008 г., Tall Brunette Stockings Fishnet Deepthroat Rough Spit]


GaggingWhores.com - Monica

Имя актрисы: Monica
Подсайт и сайт: GaggingWhores.com

Год производства: 2008 г.
Жанр: Tall Brunette Stockings Fishnet Deepthroat Rough Spit
Продолжительность: 00:24:16

Описание: Monica got the 'special treatment' from our boys today as they spared no mercy on this filthy whore. They stuffed her throat with their abusive cocks and didnt let up until she started to choke.

Доп. информация: Format : Windows Media
File size : 210 MiB
Duration : 24mn 15s
Overall bit rate mode : Constant
Overall bit rate : 1 211 Kbps
Maximum Overall bit rate : 1 213 Kbps
Movie name :
Performer : GaggingWhores.com
Encoded date : UTC 2007-08-18 03:50:48.156
Copyright : GaggingWhores.com
Comment :
Rating : Adults Only

Video
ID : 2
Format : VC-1
Format profile : MP@ML
Codec ID : WMV3
Codec ID/Info : Windows Media Video 9
Codec ID/Hint : WMV3
Description of the codec : Windows Media Video 9 - Professional
Duration : 24mn 15s
Bit rate mode : Constant
Bit rate : 1 104 Kbps
Width : 640 pixels
Height : 480 pixels
Display aspect ratio : 4:3
Frame rate : 30.000 fps
Bit depth : 8 bits
Scan type : Progressive
Compression mode : Lossy
Bits/(Pixel*Frame) : 0.120
Stream size : 192 MiB (91%)

Audio
ID : 1
Format : WMA
Format version : Version 2
Codec ID : 161
Codec ID/Info : Windows Media Audio
Description of the codec : Windows Media Audio 9.1 - 96 kbps, 44 kHz, stereo 1-pass CBR
Duration : 24mn 15s
Bit rate mode : Constant
Bit rate : 96.0 Kbps
Channel(s) : 2 channels
Sampling rate : 44.1 KHz
Bit depth : 16 bits
Stream size : 16.7 MiB (8%)

Видео: Video: Windows Media Video 9 640x480 29.97fps 1104kbps [Raw Video 1]
Аудио: Audio: WMA 2 44100Hz stereo 96kbps [Raw Audio 0]
Скриншоты
Залилpornolabs.org Super USER
КатегорияЗарубежные порноролики
Раздают17
Качают41
Добавлен25-Окт-2015 12:43 (1 год 11 месяцев назад)
Размер210 MB (220290665 Bytes)
Добавить в закладки
Файлы (1)


Написать комментарий


Файлы для обмена предоставлены пользователями сайта. Администрация не несёт ответственности за их содержание. На сервере хранятся только торрент-файлы. Это значит, что мы не храним никаких нелегальных материалов, а так же материалов охраняемых авторским правом.