Скачать порно торрент без регистрации бесплатно.

Pornolabs.org отличный порно торрент. У нас вы сможете скачать порно через торрент на любой вкус. Самые горячие новинки порно за 2015 год. Имеются паки порно фильмов торрент, сайтрипы, хентай торрент, порно игры, японское порно, и даже гей порно. Скачать порно torrent намного проще, чем смотреть порно онлайн. Скачивая порно через торрент у нас Вы не пожалеете. Быстро, без регистрации, без вирусов. Самое горячее порно видео на Pornolabs.org. Порно с самимы популярными порно актриссами, такими например как Саша Грей, Лиза Энн и т.д. У нас даже можно скачать нетрадиционное порно, бдсм или например порно с транссексуалами. Оставайтесь с нами и сможете в любое время скачать новое порно бесплатно через торрент.

Скачать торрент Corruption / Коррупция (Roger Watkins, Vinegar Syndrome) [1983 г., Feature, Classic, BDRip, 720p]


Corruption / Коррупция

Год производства: 1983 г.
Страна: USA
Жанр: Feature, Classic
Продолжительность: 01:18:46

Режиссер: Roger Watkins
Студия: Vinegar Syndrome

Язык: Английский
В ролях: Kelly Nichols, Mary Constantine (Marilyn Gee), Nicole Bernard, Sabrina Vale (Marisa Betancourt), Alexis X, Tanya Lawson, Tiffany Clark, Tish Ambrose, Vanessa del Rio, Alexis X, George Payne, Jamie Gillis, Michael Gaunt, Michael Morrison, Bobby Astyr

Описание: Некоторые мужчины жаждут власти, другие успехa, но ни один мужчина не способен устоять перед соблазном... Уильямс (Jamie Gillis) в погряз в долгах. Долг он не в состоянии погасить. Его дочь (Kelly Nichols) красивая и невинная, втягивается в мир плотских развлечений. Его любовница (Vanessa Del Rio) обеспечивает ему комфорт, но не в состоянии его спасти. Его сотрудник (George Payne) пытается помочь, но не может справится с его странными привычками. Только его брат (Bobby Astyr) подводит неожиданную черту в этой череде обманов.

Доп. информация: http://www.iafd.com/title.rme/title=Corruption/year=1983/corruption.htm

Исходник [url=...2124103]Blu-Ray[/url]
Спасибо LIVE.S

Тип HD видео: 720p
Качество видео: BDRip
Формат видео: MKV
Видео: х264 | 1280x720 | 23,976 кадра/сек | 6729 Кбит/сек | 0.305
Аудио: AC-3 | 48,0 КГц | mono | 192 Кбит/сек
MediaInfo
Полное имя : E:\Corruption (1983).mkv
Формат : Matroska
Версия формата : Version 2
Размер файла : 3,89 Гбайт
Продолжительность : 1 ч. 18 м.
Общий поток : 7062 Кбит/сек
Название фильма : Corruption (1983) - релиз для PORNOLAB.NET
Дата кодирования : UTC 2016-02-02 12:42:16
Программа кодирования : mkvmerge v7.9.0 ('Birds') 32bit
Библиотека кодирования : libebml v1.3.1 + libmatroska v1.4.2
Обложка : Yes
Attachments : cover.jpg

Видео
Идентификатор : 1
Формат : AVC
Формат/Информация : Advanced Video Codec
Профиль формата : High@L4.1
Параметр CABAC формата : Да
Параметр ReFrames формата : 6 кадров
Идентификатор кодека : V_MPEG4/ISO/AVC
Продолжительность : 1 ч. 18 м.
Битрейт : 6729 Кбит/сек
Ширина : 1280 пикселей
Высота : 720 пикселей
Соотношение сторон : 16:9
Режим частоты кадров : Постоянный
Частота кадров : 23,976 (24000/1001) кадра/сек
Цветовое пространство : YUV
Субдискретизация насыщенности : 4:2:0
Битовая глубина : 8 бит
Тип развёртки : Прогрессивная
Бит/(Пиксели*Кадры) : 0.305
Размер потока : 3,70 Гбайт (95%)
Библиотека кодирования : x264 core 148 r2665 a01e339
Настройки программы : cabac=1 / ref=6 / deblock=1:0:0 / analyse=0x3:0x113 / me=umh / subme=9 / psy=1 / psy_rd=1.00:0.00 / mixed_ref=1 / me_range=24 / chroma_me=1 / trellis=2 / 8x8dct=1 / cqm=0 / deadzone=21,11 / fast_pskip=1 / chroma_qp_offset=-2 / threads=4 / lookahead_threads=1 / sliced_threads=0 / nr=0 / decimate=0 / interlaced=0 / bluray_compat=0 / constrained_intra=0 / bframes=4 / b_pyramid=2 / b_adapt=2 / b_bias=0 / direct=1 / weightb=1 / open_gop=0 / weightp=2 / keyint=250 / keyint_min=23 / scenecut=40 / intra_refresh=0 / rc_lookahead=60 / rc=crf / mbtree=1 / crf=19.0 / qcomp=0.70 / qpmin=0 / qpmax=69 / qpstep=4 / vbv_maxrate=50000 / vbv_bufsize=62500 / crf_max=0.0 / nal_hrd=none / filler=0 / ip_ratio=1.40 / aq=1:1.00
Язык : English
Default : Да
Forced : Нет

Аудио
Идентификатор : 2
Формат : AC-3
Формат/Информация : Audio Coding 3
Расширение режима : CM (complete main)
Параметр Endianness формата : Big
Идентификатор кодека : A_AC3
Продолжительность : 1 ч. 18 м.
Вид битрейта : Постоянный
Битрейт : 192 Кбит/сек
Каналы : 1 канал
Расположение каналов : Front: C
Частота : 48,0 КГц
Частота кадров : 31,250 кадров/сек (1536 spf)
Метод сжатия : С потерями
Размер потока : 108 Мбайт (3%)
Язык : English
Default : Да
Forced : Нет

Меню
00:04:50.000 : :Scene 1. Tanya Lawson
00:11:00.000 : :Scene 2. Marilyn Gee
00:16:00.000 : :Scene 3. Tish Ambrose
00:22:02.000 : :Scene 4. Tiffany Clark
00:30:35.000 : :Scene 5. Kelly Nichols
00:39:22.000 : :Scene 6. Alexis X & Marisa Betancourt
00:47:45.000 : :Scene 7. Nicole Bernard
01:01:23.000 : :Scene 8. Vanessa del Rio
01:05:21.000 : :Scene 9. Kelly Nichols
Скриншоты
Скринлист
Scene Breakdowns
Награды / Номинации
Ссылки на другие раздачи
Залилpornolabs.org Super USER
КатегорияЗарубежные фильмы в высоком качестве
Раздают25
Качают6
Добавлен17-Фев-2016 01:50 (1 год 5 месяцев назад)
Размер3.89 GB (4172370413 Bytes)
Добавить в закладки
Файлы (1)


Написать комментарий


Файлы для обмена предоставлены пользователями сайта. Администрация не несёт ответственности за их содержание. На сервере хранятся только торрент-файлы. Это значит, что мы не храним никаких нелегальных материалов, а так же материалов охраняемых авторским правом.