Скачать порно торрент без регистрации бесплатно.

Pornolabs.org отличный порно торрент. У нас вы сможете скачать порно через торрент на любой вкус. Самые горячие новинки порно за 2015 год. Имеются паки порно фильмов торрент, сайтрипы, хентай торрент, порно игры, японское порно, и даже гей порно. Скачать порно torrent намного проще, чем смотреть порно онлайн. Скачивая порно через торрент у нас Вы не пожалеете. Быстро, без регистрации, без вирусов. Самое горячее порно видео на Pornolabs.org. Порно с самимы популярными порно актриссами, такими например как Саша Грей, Лиза Энн и т.д. У нас даже можно скачать нетрадиционное порно, бдсм или например порно с транссексуалами. Оставайтесь с нами и сможете в любое время скачать новое порно бесплатно через торрент.

Скачать торрент LOVE / LOVE (Brahim Chioua | Vincent Maraval | Gaspar Noé | Rodrigo Teixeira | Edouard Weil, Unknown) [2015 г., Drama | Romance, BDRip]


LOVE / LOVE

Год производства: 2015 г.
Страна: France | Belgium
Жанр: Drama | Romance
Продолжительность: 2:06:04
Язык: Французский

Режиссер: Brahim Chioua | Vincent Maraval | Gaspar Noé | Rodrigo Teixeira | Edouard Weil
Студия: Unknown

В ролях: Aomi Muyock Karl Glusman Klara Kristin Ugo Fox Juan Saavedra Gaspar Noé Isabelle Nicou Benoît Debie Vincent Maraval Déborah Révy Xamira Zuloaga Stella Rocha Omaima S.

Описание: Murphy is an American living in Paris who enters a highly sexually and emotionally charged relationship with the unstable Electra. Unaware of the effect it will have on their relationship, they invite their pretty neighbor into their bed.

Доп. информация: MPEG-4
Format profile : Base Media / Version 2
Codec ID : mp42 (isom/iso2/avc1/mp41)
File size : 1.05 GiB
Duration : 2h 6mn
Overall bit rate : 1 196 Kbps
Movie name : Love
Encoded date : UTC 2036-02-06 06:28:16
Tagged date : UTC 2036-02-06 06:28:16
Writing application : HandBrake 0.10.2 2015060900

Video
ID : 1
Format : AVC
Format/Info : Advanced Video Codec
Format profile : High@L4.1
Format settings, CABAC : Yes
Format settings, ReFrames : 3 frames
Format settings, GOP : M=3, N=25
Codec ID : avc1
Codec ID/Info : Advanced Video Coding
Duration : 2h 6mn
Bit rate : 1 000 Kbps
Width : 1 280 pixels
Height : 538 pixels
Display aspect ratio : 2.40:1
Frame rate mode : Constant
Frame rate : 25.000 fps
Color space : YUV
Chroma subsampling : 4:2:0
Bit depth : 8 bits
Scan type : Progressive
Bits/(Pixel*Frame) : 0.058
Stream size : 902 MiB (84%)
Encoded date : UTC 2036-02-06 06:28:16
Tagged date : UTC 2036-02-06 06:28:16
Color range : Limited
Color primaries : BT.709
Transfer characteristics : BT.709
Matrix coefficients : BT.709

Audio
ID : 2
Format : AC-3
Format/Info : Audio Coding 3
Mode extension : CM (complete main)
Format settings, Endianness : Big
Codec ID : ac-3
Duration : 2h 6mn
Bit rate mode : Constant
Bit rate : 192 Kbps
Channel(s) : 2 channels
Channel positions : Front: L R
Sampling rate : 48.0 KHz
Frame rate : 31.250 fps (1536 spf)
Bit depth : 16 bits
Compression mode : Lossy
Stream size : 173 MiB (16%)
Title : Stereo / Stereo
Language : English/French
Subtitle :English
Default : Yes
Alternate group : 1
Encoded date : UTC 2036-02-06 06:28:16
Tagged date : UTC 2036-02-06 06:28:16

Качество видео: BDRip
Формат видео: MP4
Видео: 1280 x 538
Аудио: 192 Kbps
Скриншоты
Залилpornolabs.org Super USER
КатегорияЭротическое видео
Раздают72
Качают50
Добавлен11-Мар-2016 04:06 (10 месяцев назад)
Размер1.05 GB (1130912812 Bytes)
Добавить в закладки
Файлы (2)


Написать комментарий


Файлы для обмена предоставлены пользователями сайта. Администрация не несёт ответственности за их содержание. На сервере хранятся только торрент-файлы. Это значит, что мы не храним никаких нелегальных материалов, а так же материалов охраняемых авторским правом.